Zone Telechargement

Dernières actualités du site :

16/10 - The Wedding Guest New!
16/10 - Flash (2014) Saison 6 Episode 2 New!
16/10 - Ali New!

Catégories

Liens rapides

Filtrer par
Genres/Epoques/Pays/Notes

Année de sortie :

Action
Animation
Arts Martiaux
Aventure
Biopic
Comédie dramatique
Comédie musicale
Comédie
Divers
Documentaire
Drame
Epouvante-horreur
Espionnage
Famille
Fantastique
Guerre
Historique
Musical
Péplum
Policier
Romance
Science fiction
Thriller
Western

Calendrier

«    October 2019    »
MonTueWedThuFriSatSun
 123456
78910111213
14151617181920
21222324252627
28293031 

Membre

Annonces

Remarque


La qualité audio/vidéo de ce film est très variable, consultez cette page (cliquez ici) pour avoir les détails des différentes qualités ...
Julia
Qualité BRRIP VOSTFR

Julia







Une jeune femme tente de se reconstruire après un grave traumatisme grâce à une thérapie peu conventionnelle...NFO Show/hide text General Unique ID : 225299780047304364910569683800049789652 (0xA97F28C6F287A084BFE06132313B2AD4) Complete name : Julia.2014.FANSUB.VOSTFR.BRRip.1080p.HDLight.x264.AC3-LTaTM.WwW.Zone-Telechargement.Net.mkv Format : Matroska Format version : Version 4 / Version 2 File size : 2.00 GiB Duration : 1 h 35 min Overall bit rate : 3 009 kb/s Encoded date : UTC 2019-09-02 16:19:25 Writing application : mkvmerge v9.3.1 ('Mask Machine') 64bit Writing library : libebml v1.3.4 + libmatroska v1.4.5 Video ID : 1 Format : AVC Format/Info : Advanced Video Codec Format profile : [email protected] Format settings : CABAC / 4 Ref Frames Format settings, CABAC : Yes Format settings, ReFrames : 4 frames Codec ID : V_MPEG4/ISO/AVC Duration : 1 h 35 min Bit rate : 2 689 kb/s Width : 1 920 pixels Height : 796 pixels Display aspect ratio : 2.40:1 Frame rate mode : Constant Frame rate : 23.976 (23976/1000) FPS Color space : YUV Chroma subsampling : 4:2:0 Bit depth : 8 bits Scan type : Progressive Bits/(Pixel*Frame) : 0.073 Stream size : 1.79 GiB (89%) Writing library : x264 core 148 r2665 a01e339 Encoding settings : cabac=1 / ref=3 / deblock=1:0:0 / analyse=0x3:0x113 / me=hex / subme=7 / psy=1 / psy_rd=1.00:0.00 / mixed_ref=1 / me_range=16 / chroma_me=1 / trellis=1 / 8x8dct=1 / cqm=0 / deadzone=21,11 / fast_pskip=1 / chroma_qp_offset=-2 / threads=6 / lookahead_threads=1 / sliced_threads=0 / nr=0 / decimate=1 / interlaced=0 / bluray_compat=0 / constrained_intra=0 / bframes=3 / b_pyramid=2 / b_adapt=1 / b_bias=0 / direct=1 / weightb=1 / open_gop=0 / weightp=2 / keyint=250 / keyint_min=23 / scenecut=40 / intra_refresh=0 / rc_lookahead=40 / rc=2pass / mbtree=1 / bitrate=2689 / ratetol=1.0 / qcomp=0.60 / qpmin=0 / qpmax=69 / qpstep=4 / cplxblur=20.0 / qblur=0.5 / ip_ratio=1.40 / aq=1:1.00 Default : Yes Forced : No Audio ID : 2 Format : AC-3 Format/Info : Audio Coding 3 Codec ID : A_AC3 Duration : 1 h 35 min Bit rate mode : Constant Bit rate : 320 kb/s Channel(s) : 2 channels Channel positions : Front: L R Sampling rate : 48.0 kHz Frame rate : 31.250 FPS (1536 SPF) Bit depth : 16 bits Compression mode : Lossy Stream size : 218 MiB (11%) Language : English Service kind : Complete Main Default : Yes Forced : No




Qualité/Format/Langue : BRRIP VOSTFR




Vous n'avez pas encore acheté ce film ? Rendez vous sur:

OU
La loi française vous autorise à télécharger un fichier seulement si vous en possédez l'original.
Vous n'arrivez pas à trouver un vendeur ? Faites une recherche sur Google.


Vous l'avez déjà? Passer au téléchargement




Publié : 16-09-2019, 04:25

Vous devez vous connecter ou vous inscrire pour participer aux commentaires.
Cliquez-ici pour vous inscrire



ZoneTelechargement.site n'héberge aucun fichier. La loi française vous autorise à télécharger un fichier seulement si vous en possédez l'original. Ni ZoneTelechargement.site, ni nos hébergeurs, ni personne ne pourront êtres tenu responsables d'une mauvaise utilisation de ce site.