Zone Telechargement

Dernières actualités du site :

16/10 - The Wedding Guest New!
16/10 - Flash (2014) Saison 6 Episode 2 New!
16/10 - Ali New!

Catégories

Liens rapides

Filtrer par
Genres/Epoques/Pays/Notes

Année de sortie :

Action
Animation
Arts Martiaux
Aventure
Biopic
Comédie dramatique
Comédie musicale
Comédie
Divers
Documentaire
Drame
Epouvante-horreur
Espionnage
Famille
Fantastique
Guerre
Historique
Musical
Péplum
Policier
Romance
Science fiction
Thriller
Western

Calendrier

«    October 2019    »
MonTueWedThuFriSatSun
 123456
78910111213
14151617181920
21222324252627
28293031 

Membre

Annonces

Remarque


La qualité audio/vidéo de ce film est très variable, consultez cette page (cliquez ici) pour avoir les détails des différentes qualités ...
Itsy Bitsy
Qualité WEB-DL 1080p VOSTFR

Itsy Bitsy







Sur la base d'un poème séculaire, une famille s'installedans un manoir isolé où elle se retrouve rapidement prisepour cible par une entité prenant la forme d'une araignée géante.NFO Show/hide text General Unique ID : 279292798048780904584270568515809942722 (0xD21DD617D8F7A4271233EEAF3D619CC2) Complete name : Itsy.Bitsy.2019.FANSUB.VOSTFR.1080p.WEB-DL.H264.AC3-LTaTM.WwW.Zone-Telechargement.Net.mkv Format : Matroska Format version : Version 4 / Version 2 File size : 2.34 GiB Duration : 1 h 34 min Overall bit rate mode : Variable Overall bit rate : 3 536 kb/s Encoded date : UTC 2019-09-06 20:12:21 Writing application : mkvmerge v30.0.0 ('Interstellar') 64-bit Writing library : libebml v1.3.6 + libmatroska v1.4.9 Video ID : 1 Format : AVC Format/Info : Advanced Video Codec Format profile : [email protected] Format settings : CABAC / 3 Ref Frames Format settings, CABAC : Yes Format settings, ReFrames : 3 frames Codec ID : V_MPEG4/ISO/AVC Duration : 1 h 34 min Bit rate mode : Variable Bit rate : 2 895 kb/s Maximum bit rate : 14.0 Mb/s Width : 1 920 pixels Height : 1 080 pixels Display aspect ratio : 16:9 Frame rate mode : Constant Frame rate : 23.976 (23976/1000) FPS Color space : YUV Chroma subsampling : 4:2:0 Bit depth : 8 bits Scan type : Progressive Bits/(Pixel*Frame) : 0.058 Stream size : 1.92 GiB (82%) Writing library : x264 core 155 r2901 7d0ff22 Encoding settings : cabac=1 / ref=3 / deblock=1:0:0 / analyse=0x3:0x113 / me=hex / subme=7 / psy=1 / psy_rd=1.00:0.00 / mixed_ref=1 / me_range=16 / chroma_me=1 / trellis=1 / 8x8dct=1 / cqm=0 / deadzone=21,11 / fast_pskip=1 / chroma_qp_offset=-2 / threads=6 / lookahead_threads=1 / sliced_threads=0 / slices=4 / nr=0 / decimate=1 / interlaced=0 / bluray_compat=1 / constrained_intra=0 / bframes=3 / b_pyramid=1 / b_adapt=1 / b_bias=0 / direct=1 / weightb=1 / open_gop=1 / weightp=1 / keyint=24 / keyint_min=1 / scenecut=40 / intra_refresh=0 / rc_lookahead=24 / rc=2pass / mbtree=1 / bitrate=2895 / ratetol=1.0 / qcomp=0.60 / qpmin=0 / qpmax=69 / qpstep=4 / cplxblur=20.0 / qblur=0.5 / vbv_maxrate=14000 / vbv_bufsize=14500 / nal_hrd=vbr / filler=0 / ip_ratio=1.40 / aq=1:1.00 Default : Yes Forced : No Color range : Limited Color primaries : BT.709 Transfer characteristics : BT.709 Matrix coefficients : BT.709 Audio ID : 2 Format : E-AC-3 Format/Info : Enhanced Audio Coding 3 Codec ID : A_EAC3 Duration : 1 h 34 min Bit rate mode : Constant Bit rate : 640 kb/s Channel(s) : 6 channels Channel positions : Front: L C R, Side: L R, LFE Sampling rate : 48.0 kHz Frame rate : 187.500 FPS (256 SPF) Compression mode : Lossy Stream size : 434 MiB (18%) Language : English Service kind : Complete Main Default : No Forced : Yes




Qualité/Format/Langue : WEB-DL 1080p VOSTFR




Vous n'avez pas encore acheté ce film ? Rendez vous sur:

OU
La loi française vous autorise à télécharger un fichier seulement si vous en possédez l'original.
Vous n'arrivez pas à trouver un vendeur ? Faites une recherche sur Google.


Vous l'avez déjà? Passer au téléchargement




Publié : 16-09-2019, 04:25

Vous devez vous connecter ou vous inscrire pour participer aux commentaires.
Cliquez-ici pour vous inscrire



ZoneTelechargement.site n'héberge aucun fichier. La loi française vous autorise à télécharger un fichier seulement si vous en possédez l'original. Ni ZoneTelechargement.site, ni nos hébergeurs, ni personne ne pourront êtres tenu responsables d'une mauvaise utilisation de ce site.